Quick Browse
Movies
TV shows
Music
Games
Applications
Anime
Other

Latest Articles

Friends
Torrents.me
Torrent Download
Movie4u
1337x
RARBG
Full Movies
Torrent Downloads

Believe In Me [2006] LIMITED DVDRip XViD-ALLiANCE rar


    Seeders : 4      Leechers : 4

Hash :70A6DEF67FE22A8599252E4264329A646C5F6B32
Added :1 Year+ in Movies
Size :701.81 MB
Stream :Watch Online Full Movie @ Movie4u
Share :









Note :

Please Update (Trackers Info) Before Downloading Torrents to See Updated Seeders And Leechers for Batter Download Speed.

Trackers List

Tracker NameLast CheckStatusSeedersLeechers




Torrent File Content (1 file)


     Believe In Me [2006] LIMITED DVDRip XViD-ALLiANCE.rar -
701.81 MB



Description



Believe In Me [2006]  LIMITED DVDRip XViD-ALLiANCE



General
Complete name                    : Believe In Me [2006]  LIMITED DVDRip XViD-ALLiANCE.avi
Format                           : AVI
Format/Info                      : Audio Video Interleave
File size                        : 699 MiB
Duration                         : 1h 48mn
Overall bit rate                 : 898 Kbps
Writing application              : Nandub v1.0rc2
Writing library                  : Nandub build 1853/release

Video
Format                           : MPEG-4 Visual
Format settings, BVOP            : Yes
Format settings, QPel            : No
Format settings, GMC             : No warppoints
Format settings, Matrix          : Default
Codec ID                         : XVID
Codec ID/Hint                    : XviD
Duration                         : 1h 48mn
Bit rate                         : 740 Kbps
Width                            : 576 pixels
Height                           : 432 pixels
Display aspect ratio             : 4/3
Frame rate                       : 23.976 fps
Resolution                       : 24 bits
Scan type                        : Progressive
Bits/(Pixel*Frame)               : 0.124
Stream size                      : 576 MiB (82%)

Audio
Format                           : MPEG Audio
Format version                   : Version 1
Format profile                   : Layer 3
Codec ID                         : 55
Codec ID/Hint                    : MP3
Duration                         : 1h 48mn
Bit rate mode                    : Variable
Bit rate                         : 145 Kbps
Channel(s)                       : 2 channels
Sampling rate                    : 48.0 KHz
Resolution                       : 16 bits
Stream size                      : 113 MiB (16%)
Alignment                        : Aligned on interleaves
Interleave, duration             : 24 ms (0.58 video frame)
Interleave, preload duration     : 238 ms
Writing library                  : LAME3.91 
Encoding settings                : VBR (mtrh)

Related torrents

Torrent NameAddedSizeSeedLeechHealth
1 Year+ - in Movies5.55 GB10
1 Year+ - in Movies1003.16 MB10
11 months ago - in Other1.89 MB00
1 Year+ - in Movies1.38 GB01
11 months ago - in Movies704.94 MB00

Note :

Feel free to post any comments about this torrent, including links to Subtitle, samples, screenshots, or any other relevant information. Please Dont Download anything from Comments, And Dont Post Links to Streaming Sites like Fmovies, Xmovies8, 123Movies, GoMovies, CMovieshd, Solarmovie, Watchfree, Putlockers, GoStream, m4ufree etc.

Comments (0 Comments)




Please login or create a FREE account to post comments

Latest Searches

| sport ing penny flame | Xconfessions VOL 5 2015 WEBRip | elliott under construction | Alexis Fawx Rachel Starr 2160p | 2017 The Post 1080p | Black Panther 2018 BluRay 3D HSBS YTS AM | taboo year old | top ten rock songs | the flash s02e18 mux 1080p h264 ita eng ac3 sub ita eng dlmux giuseppetnt littlelinx | l amore ai tempi di |
Sitemap