Verified torrent What Still Remains 2018 1080p WEB-DL DD 5.1 x264 [MW]


    Seeders : 19      Leechers : 20

Hash :86A78CBDB17FEEA285E1576D56BFC249EB69BB04
Added :5 days ago by MovieFreakVerified torrent uploader in Movies
Size :1.82 GB
Stream :Watch Full Movie Online @ Movie4u
Share :








Warning! Do not Download Torrents Without a VPN!
Your IP Address is 185.162.9.168.   And Location is Netherlands, Naaldwijk
Your Internet Provider and Government can track your torrent Activity!  Hide your IP ADDRESS with a VPN!
We Strongly Recommend Using Best Cheapest VPN to Anonymize your Torrenting.

Note :

Please Update (Trackers Info) Before Start Torrents Downloading to See Updated Seeders And Leechers for Batter Download Speed.

Trackers List

Tracker NameLast CheckStatusSeedersLeechers
udp://tracker.coppersurfer.tk:80/announce5 days agosuccess1920
udp://tracker.pirateparty.gr:6969/announce5 days agosuccess1920
udp://tracker.coppersurfer.tk:69695 days agosuccess1920
udp://tracker.coppersurfer.tk:6969/announce5 days agosuccess1920
udp://tracker.opentrackr.org:1337/announce5 days agosuccess1113
udp://tracker.vanitycore.co:6969/announce5 days agosuccess1114
udp://open.stealth.si:80/announce5 days agosuccess710
http://9.rarbg.to:2720/announce5 days agosuccess15
http://tracker.vanitycore.co:6969/announce5 days agosuccess15
http://9.rarbg.me:2800/announce5 days agosuccess15
http://public.popcorn-tracker.org:6969/announce5 days agosuccess15
udp://tracker.zer0day.to:1337/announce5 days agosuccess00
udp://zer0day.ch:13375 days agosuccess00
udp://tracker.cypherpunks.ru:6969/announce5 days agosuccess00
udp://inferno.demonoid.pw:3418/announce5 days agosuccess00
udp://asnet.pw:2710/announce5 days agosuccess00
udp://ipv4.tracker.harry.lu:80/announce5 days agosuccess00
udp://exodus.desync.com:6969/announce5 days agosuccess00
udp://open.demonii.com:13375 days agosuccess00
udp://exodus.desync.com:69695 days agosuccess00
udp://ipv6.tracker.harry.lu:80/announce5 days agosuccess00
udp://glotorrents.pw:6969/announce5 days agosuccess00
udp://p4p.arenabg.ch:1337/announce5 days agosuccess00




Torrent File Content (1 file)


What Still Remains 2018 1080p WEB-DL DD 5.1 x264 [MW]
     What Still Remains 2018 1080p WEB-DL DD 5.1 x264 [MW].mkv -
1.82 GB



Description




[url=http://pichub.site/image/SfDCu]
http://pichub.site/images/2018/08/16/wat.md.jpg
[/url]


General
Format : Matroska
Format version : Version 4 / Version 2
File size : 1.82 GiB
Duration : 1 h 31 min
Overall bit rate : 2 844 kb/s

Video
ID : 1
Format : AVC
Format/Info : Advanced Video Codec
Format profile : [email protected]
Format settings : CABAC / 4 Ref Frames
Format settings, CABAC : Yes
Format settings, RefFrames : 4 frames
Codec ID : V_MPEG4/ISO/AVC
Duration : 1 h 31 min
Bit rate : 2 500 kb/s
Width : 1 886 pixels
Height : 796 pixels
Display aspect ratio : 2.35:1
Frame rate mode : Constant
Frame rate : 23.976 (24000/1001) FPS
Color space : YUV
Chroma subsampling : 4:2:0
Bit depth : 8 bits
Scan type : Progressive
Bits/(Pixel*Frame) : 0.069
Stream size : 1.57 GiB (86%)
Writing library : x264 core 155 r2901 7d0ff22
Default : Yes
Forced : No

Audio
ID : 3
Format : AC-3
Format/Info : Audio Coding 3
Codec ID : A_AC3
Duration : 1 h 31 min
Bit rate mode : Constant
Bit rate : 384 kb/s
Channel(s) : 6 channels
Channel positions : Front: L C R, Side: L R, LFE
Sampling rate : 48.0 kHz
Frame rate : 31.250 FPS (1536 SPF)
Bit depth : 16 bits
Compression mode : Lossy
Stream size : 251 MiB (14%)
Language : English
Service kind : Complete Main
Default : Yes
Forced : No

Text
ID : 2
Format : UTF-8
Codec ID : S_TEXT/UTF8
Codec ID/Info : UTF-8 Plain Text
Duration : 1 h 26 min
Bit rate : 44 b/s
Count of elements : 1043
Stream size : 28.5 KiB (0%)
Language : English
Default : Yes
Forced : No


Click To Enlarge Image

[url=http://pichub.site/image/SfS49]
http://pichub.site/images/2018/08/16/00_07_13.md.jpg
[/url]
[url=http://pichub.site/image/SfErR]
http://pichub.site/images/2018/08/16/00_15_06.md.jpg
[/url]
[url=http://pichub.site/image/SfdQs]
http://pichub.site/images/2018/08/16/00_24_03.md.jpg
[/url]
[url=http://pichub.site/image/SfV7B]
http://pichub.site/images/2018/08/16/00_33_37.md.jpg
[/url]
[url=http://pichub.site/image/SfkZ6]
http://pichub.site/images/2018/08/16/00_41_33.md.jpg
[/url]
[url=http://pichub.site/image/SfcNY]
http://pichub.site/images/2018/08/16/00_44_29.md.jpg
[/url]


Related torrents

Torrent NameAddedSizeSeedLeechHealth
7 days ago - in Movies3.07 GB25
7 days ago - in Movies3.07 GB1125
7 days ago - in Movies3.07 GB13
Verified torrent
7 days ago - in Movies651.09 MB15466
7 days ago - in Movies1.31 GB317
Verified torrent
7 days ago - in Movies1.29 GB16232

Note :

Feel free to post any comments about this torrent, including links to Subtitle, samples, screenshots, or any other relevant information. Please Dont Download anything from Comments, And Links to Streaming Sites like Watch Online What Still Remains 2018 1080p WEB-DL DD 5.1 x264 [MW] Full Movie, Fmovies, 123Movies, Putlocker, Netflix, etc.

Comments (0 Comments)




Please login or create a FREE account to post comments

Latest Searches

Sitemap